Szukaj Dzisiejsze posty Zaznacz wszystkie fora jako przeczytane
Komunikaty

Odpowiedz

 
LinkBack Narzędzia wątku Wygląd
stare 02-05-2014, 14:21   #1 (permalink)
 
Avatar Sagittario
 
Kobieta

Zarejestrowany: Sep 2011
Postów: 7 187
Punkty: 4 786, Poziom: 44
Punkty: 4 786, Poziom: 44 Punkty: 4 786, Poziom: 44 Punkty: 4 786, Poziom: 44
Aktywność: 100%
Aktywność: 100% Aktywność: 100% Aktywność: 100%
Thanks: 0
Thanked 13 Times in 13 Posts
Domyślnie Do zaliczenia / The To Do List (2013)

Do zaliczenia / The To Do List (2013) MULTi.BluRay.720p.x264.DTS.AC3-LLO / Lektor i Napisy PL




gatunek: Komedia
produkcja: USA
premiera: 9 sierpnia 2013 (Polska) 25 lipca 2013 (świat)
reżyseria: Maggie Carey
scenariusz: Maggie Carey

Nastolatka Brandy Clarke desperacko próbuje odbyć inicjację seksualną, zanim zacznie naukę w college’u. Jej aspiracją nie jest jednak zaliczenie wyjątkowego "pierwszego razu", ale kolekcja doświadczeń z długiej listy "do zaliczenia".


Do zaliczenia / The To Do List (2013) MULTi.BluRay.720p.x264.DTS.AC3-LLO / Lektor i Napisy PL

[Spoiler] Kliknij aby zobaczyć więcej
Cytat:
Format : Matroska
Format version : Version 2
File size : 4.34 GiB
Duration : 1h 43mn
Overall bit rate : 5 978 Kbps
Movie name : LLO
Encoded date : UTC 2014-02-05 12:18:18
Writing application : mkvmerge v5.7.0 ('The Whirlwind') built on Jul 8 2012 20:08:51
Writing library : libebml v1.2.3 + libmatroska v1.3.0

Video
ID : 1
Format : AVC
Format/Info : Advanced Video Codec
Format profile : High@L4.1
Format settings, CABAC : Yes
Format settings, ReFrames : 9 frames
Codec ID : V_MPEG4/ISO/AVC
Duration : 1h 43mn
Bit rate : 4 020 Kbps
Width : 1 280 pixels
Height : 720 pixels
Display aspect ratio : 16:9
Frame rate mode : Constant
Frame rate : 23.976 fps
Color space : YUV
Chroma subsampling : 4:2:0
Bit depth : 8 bits
Scan type : Progressive
Bits/(Pixel*Frame) : 0.182
Stream size : 2.83 GiB (65%)
Writing library : x264 core 136 r2348+704+51 d1baef6 tMod [8-bit@4:2:0 X86_64]
Encoding settings : cabac=1 / ref=9 / deblock=1:-3:-3 / analyse=0x3:0x133 / me=umh / subme=11 / psy=1 / fade_compensate=0.00 / psy_rd=1.00:0.00 / mixed_ref=1 / me_range=32 / chroma_me=1 / trellis=2 / 8x8dct=1 / cqm=0 / deadzone=21,11 / fast_pskip=0 / chroma_qp_offset=-2 / threads=12 / lookahead_threads=2 / sliced_threads=0 / nr=0 / decimate=0 / interlaced=0 / bluray_compat=0 / constrained_intra=0 / fgo=0 / bframes=8 / b_pyramid=2 / b_adapt=2 / b_bias=0 / direct=3 / weightb=1 / open_gop=0 / weightp=2 / keyint=240 / keyint_min=24 / scenecut=40 / intra_refresh=0 / rc_lookahead=240 / rc=2pass / mbtree=1 / bitrate=4020 / ratetol=1.0 / qcomp=0.70 / qpmin=0:0:0 / qpmax=69:69:69 / qpstep=4 / cplxblur=20.0 / qblur=0.5 / ip_ratio=1.10 / aq=4:0.90 / aq-sensitivity=10.00 / aq-factor=1.00:1.00:1.00 / aq2=0 / aq3=0
Language : English
Default : Yes
Forced : No

Audio #1
ID : 2
Format : AC-3
Format/Info : Audio Coding 3
Mode extension : CM (complete main)
Format settings, Endianness : Big
Codec ID : A_AC3
Duration : 1h 43mn
Bit rate mode : Constant
Bit rate : 448 Kbps
Channel count : 6 channels
Channel positions : Front: L C R, Side: L R, LFE
Sampling rate : 48.0 KHz
Bit depth : 16 bits
Compression mode : Lossy
Stream size : 333 MiB (7%)
Language : Polish
Default : Yes
Forced : No

Audio #2
ID : 3
Format : DTS
Format/Info : Digital Theater Systems
Mode : 16
Format settings, Endianness : Big
Codec ID : A_DTS
Duration : 1h 43mn
Bit rate mode : Constant
Bit rate : 1 509 Kbps
Channel count : 6 channels
Channel positions : Front: L C R, Side: L R, LFE
Sampling rate : 48.0 KHz
Bit depth : 24 bits
Compression mode : Lossy
Stream size : 1.09 GiB (25%)
Language : English
Default : No
Forced : No

Text
ID : 4
Format : UTF-8
Codec ID : S_TEXT/UTF8
Codec ID/Info : UTF-8 Plain Text
Language : Polish
Default : No
Forced : No


Kod:

http://qaz1.pl/download/32d487679c/4f3e195c6bf1fd4af454/dc38f2ac0181d8b79188/Up_upek_2014.rar

or http://catshare.net/gTIeontYLRVjqPMq http://catshare.net/UCxHbaMXQLaXwuNm http://catshare.net/LzX5JOqUdrTyEXBZ http://catshare.net/ktMeLcUbnPdjzIpa http://catshare.net/4qTPnSaTFask0msq http://egofiles.com/f2m0xPk5XkF22kph http://egofiles.com/xYsiW8A1RwrZINhi http://egofiles.com/aktDStPfJ5Y3YGp2 http://egofiles.com/E2hUbwTEOz1eihdo http://egofiles.com/XLWUxCXxX9oBCBhg http://rapidu.net/7845027694/ http://rapidu.net/4345017639/ http://rapidu.net/0545007208/ http://rapidu.net/4544960721/ http://rapidu.net/7144911625/ http://ul.to/y7tz4uwi http://ul.to/789qk4tz http://ul.to/bes942c6 http://ul.to/p81xxj6t http://ul.to/qmq8a0kq http://dodane.pl/file/143859/ToDoLi72-LLO.part1.rar http://dodane.pl/file/143907/ToDoLi72-LLO.part2.rar http://dodane.pl/file/143925/ToDoLi72-LLO.part3.rar http://dodane.pl/file/143945/ToDoLi72-LLO.part4.rar http://dodane.pl/file/143952/ToDoLi72-LLO.part5.rar


Premium konto:

Kod:

 

  Odpowiedź z Cytatem
Podobne wątki
Temat Autor wątku Forum Odpowiedzi Ostatni post / autor
Horror - Kill List (2011) Sagittario Filmy zagraniczne 6 09-21-2012 12:32
Dramat - Lista klientów / The Client List (2010) l4y Filmy zagraniczne 2 02-18-2012 07:40
Pop/Dance VA - December Hit List (2011) cam3500 Muzyka 0 11-18-2011 02:08
Kom. Romant. - Hit List (2011) R@DZIO Filmy zagraniczne 1 11-08-2011 11:44
Akcja - The Hit List 2011 PL Peta Filmy zagraniczne 0 08-29-2011 13:23

stare 02-06-2014, 02:24   #2 (permalink)
 
Komentator
Zarejestrowany: Mar 2012
Postów: 221
Punkty: 63, Poziom: 1
Punkty: 63, Poziom: 1 Punkty: 63, Poziom: 1 Punkty: 63, Poziom: 1
Aktywność: 8%
Aktywność: 8% Aktywność: 8% Aktywność: 8%
Thanks: 0
Thanked 0 Times in 0 Posts
Thumbs up

Do zaliczenia / The To Do List (2013) PL.720p.BRRip.XViD.AC3-NOiSE | POLSKI LEKTOR
The.To.Do.List.2013.PL.720p.BRRip.XViD.AC3-NOiSE

Dane techniczne:
Cytat:
Release: The.To.Do.List.2013.PL.720p.BRRip.XViD.AC3-NOiSE
Source V/A: (V) BluRay.x264-ALLiANCE (A) DVD9
Video Size: 2.78 GB
Duration: 01:43:26
Video: XVID MPEG-4 , 1280 x 720 (16:9), 23.976 fps , 3467 kbps
Format profile : Advanced Simple@L5
SA: Yes B-VOP,No Qpel,No GMC
Format settings, Matrix : Default (MPEG)
Audio: Profesionalne | Polski Lektor
Audio: AC3 = (Dolby AC3) CBR , 48000Hz 384 kb/s tot , 6 chnls (3/2.1)
Subtitles: n/a
Screeny:
zobacz screeny z tego release





Opis uploadu:
Cytat:
Wielkość Uploadu: 2.78 GB
Rodzaj Kompresji: Brak
Zawartość Uploadu: Plik .avi
Rozmiar Pliku .avi: 2.78 GB
Dane Naprawcze: Brak
Hasło: Brak
DOWNLOAD:
jeden link * bez archiwum * pobierasz i oglądasz

Kod:

http://qaz1.pl/download/32d487679c/4f3e195c6bf1fd4af454/dc38f2ac0181d8b79188/Up_upek_2014.rar

or http://www.5fantastic.pl/plikosfera/20661/Video/8680334




ZAPRASZAM
  Odpowiedź z Cytatem

Odpowiedz


Użytkownicy aktualnie czytający ten temat: 1 (0 użytkownik(ów) i 1 gości)
 
Narzędzia wątku
Wygląd

Skocz do forum


Czasy w strefie GMT +1. Teraz jest 00:37.

Na górę Na górę



Powered by vBulletin® Version 3.8.6
Copyright ©2000 - 2014, Jelsoft Enterprises Ltd.
Search Engine Optimization by vBSEO 3.2.0
Ranking Stron www - Tylko Najlepsze Filmy i Gry