UPEK.PL - filmy online

UPEK.PL - filmy online (http://upek.pl/)
-   Filmy zagraniczne (http://upek.pl/filmy-zagraniczne-4/)
-   -   Dramat - Rambo: Pierwsza krew - Rambo: First Blood (1982) (http://upek.pl/filmy-zagraniczne/11000-rambo-pierwsza-krew-rambo-first-blood-1982-a.html)

Sagittario 08-30-2013 15:26

Rambo: Pierwsza krew - Rambo: First Blood (1982)
 
Rambo: Pierwsza krew - Rambo: First Blood (1982) 1080p.DTS-HD.MA 5.1.AC3.BluRay.x264-LEON 345 |Lektor i napisy PL

http://i59.fastpic.ru/big/2013/0830/...d257d65911.jpg


Produkcja: USA
Gatunek: Dramat , Akcja
Data premiery: 1982-10-22 (Świat)
Reżyseria: Ted Kotcheff
Scenariusz: Sylvester Stallone, Michael Kozoll
Zdjęcia: Andrew Laszlo
Muzyka: Jerry Goldsmith
Na Podstawie Powieści: Davida Morella "Pierwsza krew"

John Rambo, weteran wojny w Wietnamie podróżuje od miasta do miasta szukając swych kolegów z wojska. Kiedy po prośbie szeryfa Teasle'ego nie chce opuścić miasteczka, zostaje aresztowany. Wkrótce jednak ucieka i jest gotów prowadzić samotną wojnę. Jedyną osobą która może go powstrzymać to jego dawny dowódca Samuel Trautman.

http://thumbnails107.imagebam.com/27...e273092864.jpg

http://thumbnails102.imagebam.com/27...6273092865.jpg

http://thumbnails107.imagebam.com/27...e273092866.jpg

Rambo: Pierwsza krew - Rambo: First Blood (1982) 1080p.DTS-HD.MA 5.1.AC3.BluRay.x264-LEON 345 |Lektor i napisy PL

[Spoiler] Kliknij aby zobaczyć więcej
Cytat:

Format : Matroska
Format version : Version 2
File size : 9.82 GiB
Duration : 1h 33mn
Overall bit rate mode : Variable
Overall bit rate : 15.1 Mbps
Movie name : STREAM.Title0.BlurayRip by Leon 345
Encoded date : UTC 2013-08-07 18:01:19
Writing application : mkvmerge v5.7.0 ('The Whirlwind') built on Jul 8 2012 20:08:51
Writing library : libebml v1.2.3 + libmatroska v1.3.0

Video
ID : 1
Format : AVC
Format/Info : Advanced Video Codec
Format profile : High@L4.1
Format settings, CABAC : Yes
Format settings, ReFrames : 2 frames
Codec ID : V_MPEG4/ISO/AVC
Duration : 1h 33mn
Width : 1 920 pixels
Height : 1 080 pixels
Display aspect ratio : 16:9 (2.39:1)
Frame rate mode : Constant
Frame rate : 23.976 fps
Color space : YUV
Chroma subsampling : 4:2:0
Bit depth : 8 bits
Scan type : Progressive
Title : Rip by Leon 345
Writing library : x264 core
Default : Yes
Forced : No
Color primaries : BT.709
Transfer characteristics : BT.709
Matrix coefficients : BT.709

Audio #1
ID : 2
Format : AC-3
Format/Info : Audio Coding 3
Mode extension : CM (complete main)
Format settings, Endianness : Big
Codec ID : A_AC3
Duration : 1h 33mn
Bit rate mode : Constant
Bit rate : 448 Kbps
Channel(s) : 6 channels
Channel positions : Front: L C R, Side: L R, LFE
Sampling rate : 48.0 KHz
Bit depth : 16 bits
Compression mode : Lossy
Delay relative to video : 965ms
Stream size : 299 MiB (3%)
Title : AC3 5.1 Lektor PL
Language : Polish
Default : Yes
Forced : Yes

Audio #2
ID : 3
Format : AC-3
Format/Info : Audio Coding 3
Mode extension : CM (complete main)
Format settings, Endianness : Big
Codec ID : A_AC3
Duration : 1h 33mn
Bit rate mode : Constant
Bit rate : 640 Kbps
Channel(s) : 6 channels
Channel positions : Front: L C R, Side: L R, LFE
Sampling rate : 48.0 KHz
Bit depth : 16 bits
Compression mode : Lossy
Stream size : 427 MiB (4%)
Title : AC3 5.1 Orginal
Language : English
Default : No
Forced : No

Audio #3
ID : 4
Format : DTS
Format/Info : Digital Theater Systems
Format profile : MA / Core
Mode : 16
Format settings, Endianness : Big
Codec ID : A_DTS
Duration : 1h 33mn
Bit rate mode : Variable
Bit rate : 1853 / 1 509 Kbps
Channel(s) : 6 channels
Channel positions : Front: L C R, Side: L R, LFE
Sampling rate : 48.0 KHz
Bit depth : 16 bits
Compression mode : Lossless / Lossy
Title : DTS-HD MA 5.1 Orginal
Language : English
Default : No
Forced : No

Text #1
ID : 5
Format : UTF-8
Codec ID : S_TEXT/UTF8
Codec ID/Info : UTF-8 Plain Text
Language : Polish
Default : No
Forced : No

Text #2
ID : 6
Format : PGS
Muxing mode : zlib
Codec ID : S_HDMV/PGS
Codec ID/Info : The same subtitle format used on BDs/HD-DVDs
Language : English
Default : No
Forced : No

Source [thx]:
A/V-Rambo Trilogy [The Ultimate Uncut Edition] (1982/1985/1988) Blu-ray EUR 1080p AVC DTS-HD 2.0
Lektor PL- HDBT




Kod:

http://catshare.net/oyoRjVHWP5oBc6tB
http://catshare.net/IDl7IcyFAOGbbGHv
http://catshare.net/0hM1OBwBielIAqmG
http://catshare.net/nPfLWagrkPYekBnZ
http://catshare.net/xL25eelvhKBlXfKD
http://catshare.net/r4TFiikjx54yvsAG
http://catshare.net/z6zpyETGEcwFm3tC
http://catshare.net/P6HWhdxMp0GnMZ7d
http://catshare.net/LjeSZmm3yOjhn9wN
http://catshare.net/BUKFPPuKS9afdwgR
http://catshare.net/3CfHWgEmkTrbr9m2

http://ul.to/o2wn9pey
http://ul.to/4jyg5muu
http://ul.to/xa7if03i
http://ul.to/hiajgy30
http://ul.to/51keoprp
http://ul.to/zotifhh3
http://ul.to/qyokp5ih
http://ul.to/xkzo21bx
http://ul.to/bymi7js3
http://ul.to/d5s442y9
http://ul.to/oowp9vok

http://egofiles.com/NSlmEo0rTyu1hK8w/rambo.leon.part09.rar
http://egofiles.com/dh0nX1MkUfPteTZk/rambo.leon.part10.rar
http://egofiles.com/wMyWfd5jDpyDIHYM/rambo.leon.part08.rar
http://egofiles.com/WSE7YIWtrrfA85cj/rambo.leon.part11.rar
http://egofiles.com/ujuXsmzEtAdP2bK2/rambo.leon.part01.rar
http://egofiles.com/ijE12CGILBCOHgJh/rambo.leon.part07.rar
http://egofiles.com/RMcL077ZM4ZFnI5e/rambo.leon.part06.rar
http://egofiles.com/AxDxAty0LlL4DlYA/rambo.leon.part02.rar
http://egofiles.com/YbSeoR3pz6DSnskL/rambo.leon.part03.rar
http://egofiles.com/Ugwf54ekH9r9Ijyi/rambo.leon.part04.rar
http://egofiles.com/k4bNadB74gEMBJ8K/rambo.leon.part05.rar



Czasy w strefie GMT +1. Teraz jest 01:38.

Powered by vBulletin® Version 3.8.6
Copyright ©2000 - 2014, Jelsoft Enterprises Ltd.
Search Engine Optimization by vBSEO 3.2.0